osu file format v14

[General]
AudioFilename: future gazer.mp3
AudioLeadIn: 1500
PreviewTime: 75268
Countdown: 0
SampleSet: Soft
StackLeniency: 0.7
Mode: 3
LetterboxInBreaks: 0
WidescreenStoryboard: 1

[Editor]
DistanceSpacing: 1
BeatDivisor: 4
GridSize: 8
TimelineZoom: 1

[Metadata]
Title:future gazer (TV Size)
TitleUnicode:future gazer (TV Size)
Artist:fripSide
ArtistUnicode:fripSide
Creator:17VA
Version:7K EX
Source:Toaru Kagaku no Railgun
Tags:opening nanjou yoshino yaginuma satoshi -_r_u_m_i_a_- simple_star Lunaris_Filia とある科学の超電磁砲
BeatmapID:298849
BeatmapSetID:115715

[Difficulty]
HPDrainRate:8
CircleSize:7
OverallDifficulty:8
ApproachRate:5
SliderMultiplier:1.4
SliderTickRate:1

[Events]
//Background and Video events
Video,0,"To Aru Kagaku no Railgun OP.flv",0,0
0,0,"bg.png",0,0
//Break Periods
//Storyboard Layer 0 (Background)
//Storyboard Layer 1 (Fail)
//Storyboard Layer 2 (Pass)
//Storyboard Layer 3 (Foreground)
//Storyboard Sound Samples
//Background Colour Transformations
3,100,163,162,255

[TimingPoints]
486,434.782608695652,4,2,1,30,1,0
13529,-666.666666666667,4,2,1,30,0,0
13583,-71.4285714285714,4,2,1,30,0,0
13746,-666.666666666667,4,2,1,30,0,0
13801,-71.4285714285714,4,2,1,30,0,0
13964,-666.666666666667,4,2,1,30,0,0
14018,-71.4285714285714,4,2,1,30,0,0
14181,-100,4,2,1,30,0,0
24725,-100,4,2,1,30,0,0
26572,-100,4,2,1,30,0,0
28312,-100,4,2,1,30,0,0
37877,-83.3333333333333,4,2,1,30,0,0
37931,-66.6666666666667,4,2,1,30,0,0
37985,-125,4,2,1,30,0,0
38040,-166.666666666667,4,2,1,30,0,0
38094,-83.3333333333333,4,2,1,30,0,0
38149,-66.6666666666667,4,2,1,30,0,0
38203,-125,4,2,1,30,0,0
38257,-166.666666666667,4,2,1,30,0,0
38312,-83.3333333333333,4,2,1,30,0,0
38366,-66.6666666666667,4,2,1,30,0,0
38420,-125,4,2,1,30,0,0
38475,-166.666666666667,4,2,1,30,0,0
38529,-83.3333333333333,4,2,1,30,0,0
38583,-66.6666666666667,4,2,1,30,0,0
38638,-125,4,2,1,30,0,0
38692,-111.111111111111,4,2,1,30,0,0
38746,-100,4,2,1,30,0,0
61355,-100,4,2,1,30,0,1
90920,-100,4,2,1,30,0,0

[HitObjects]
256,192,486,1,0,0:0:0:70:bassdrum.wav
36,192,486,1,0,0:0:0:70:cymbol.wav
475,192,486,1,0,0:0:0:0:
36,192,920,1,0,0:0:0:70:bassdrum.wav
475,192,920,1,0,0:0:0:0:
329,192,1138,1,0,0:0:0:0:
475,192,1246,1,0,0:0:0:0:
402,192,1355,1,0,0:0:0:0:
36,192,1355,1,0,0:0:0:70:bassdrum.wav
329,192,1464,1,0,0:0:0:0:
402,192,1572,1,0,0:0:0:0:
36,192,1572,1,0,0:0:0:0:
256,192,1681,1,0,0:0:0:0:
475,192,1790,1,0,0:0:0:0:
36,192,1790,1,0,0:0:0:70:bassdrum.wav
182,192,1790,1,0,0:0:0:0:
256,192,2225,1,0,0:0:0:0:
109,192,2225,1,0,0:0:0:70:bassdrum.wav
402,192,2225,1,0,0:0:0:0:
402,192,2659,1,0,0:0:0:0:
109,192,2659,1,0,0:0:0:70:bassdrum.wav
256,192,2877,1,0,0:0:0:0:
402,192,2985,1,0,0:0:0:0:
36,192,3094,1,0,0:0:0:70:bassdrum.wav
329,192,3094,1,0,0:0:0:0:
256,192,3203,1,0,0:0:0:0:
36,192,3312,1,0,0:0:0:0:
402,192,3312,1,0,0:0:0:0:
182,192,3420,1,0,0:0:0:0:
256,192,3529,1,0,0:0:0:0:
36,192,3529,1,0,0:0:0:70:bassdrum.wav
475,192,3529,1,0,0:0:0:0:
256,192,3964,1,0,0:0:0:0:
475,192,3964,1,0,0:0:0:0:
109,192,3964,1,0,0:0:0:70:bassdrum.wav
475,192,4399,1,0,0:0:0:0:
109,192,4399,1,0,0:0:0:70:bassdrum.wav
329,192,4616,1,0,0:0:0:0:
475,192,4725,1,0,0:0:0:0:
256,192,4833,1,0,0:0:0:70:bassdrum.wav
36,192,4833,1,0,0:0:0:0:
402,192,4942,1,0,0:0:0:0:
182,192,5051,1,0,0:0:0:0:
36,192,5051,1,0,0:0:0:0:
329,192,5159,1,0,0:0:0:0:
36,192,5268,1,0,0:0:0:0:
475,192,5268,1,0,0:0:0:0:
182,192,5268,1,0,0:0:0:70:bassdrum.wav
402,192,5485,1,0,0:0:0:30:
109,192,5703,1,0,0:0:0:0:
256,192,5703,1,0,0:0:0:70:bassdrum.wav
475,192,5703,1,0,0:0:0:0:
109,192,6138,1,0,0:0:0:70:bassdrum.wav
475,192,6138,1,0,0:0:0:0:
329,192,6355,1,0,0:0:0:0:
182,192,6464,1,0,0:0:0:0:
402,192,6572,1,0,0:0:0:70:bassdrum.wav
36,192,6572,1,0,0:0:0:0:
256,192,6681,1,0,0:0:0:0:
475,192,6790,1,0,0:0:0:0:
36,192,6790,1,0,0:0:0:0:
329,192,6899,1,0,0:0:0:0:
402,192,7007,1,0,0:0:0:70:bassdrum.wav
36,192,7007,1,0,0:0:0:0:
256,192,7007,1,0,0:0:0:0:
256,192,7225,1,0,0:0:0:70:bassdrum.wav
402,192,7225,1,0,0:0:0:0:
475,192,7442,1,0,0:0:0:0:
256,192,7442,1,0,0:0:0:70:bassdrum.wav
36,192,7442,1,0,0:0:0:0:
36,192,7876,1,0,0:0:0:70:bassdrum.wav
475,192,7876,1,0,0:0:0:0:
329,192,8094,1,0,0:0:0:0:
475,192,8202,1,0,0:0:0:0:
36,192,8311,1,0,0:0:0:70:bassdrum.wav
402,192,8312,1,0,0:0:0:0:
182,192,8420,1,0,0:0:0:0:
36,192,8528,1,0,0:0:0:0:
329,192,8529,1,0,0:0:0:0:
256,192,8638,1,0,0:0:0:0:
36,192,8746,1,0,0:0:0:70:bassdrum.wav
182,192,8746,1,0,0:0:0:0:
475,192,8746,1,0,0:0:0:0:
475,192,9181,1,0,0:0:0:0:
109,192,9181,1,0,0:0:0:0:
256,192,9181,1,0,0:0:0:70:bassdrum.wav
475,192,9616,1,0,0:0:0:0:
109,192,9616,1,0,0:0:0:70:bassdrum.wav
329,192,9833,1,0,0:0:0:0:
182,192,9942,1,0,0:0:0:0:
36,192,10050,1,0,0:0:0:0:
256,192,10051,1,0,0:0:0:70:bassdrum.wav
402,192,10159,1,0,0:0:0:0:
329,192,10268,1,0,0:0:0:0:
36,192,10268,1,0,0:0:0:0:
182,192,10377,1,0,0:0:0:0:
475,192,10485,1,0,0:0:0:0:
36,192,10485,1,0,0:0:0:0:
256,192,10485,1,0,0:0:0:70:bassdrum.wav
475,192,10703,1,0,0:0:0:0:
109,192,10703,1,0,0:0:0:70:bassdrum.wav
182,192,10920,1,0,0:0:0:70:bassdrum.wav
329,192,10920,1,0,0:0:0:0:
36,192,10920,1,0,0:0:0:0:
256,192,11572,1,0,0:0:0:70:bassdrum.wav
256,192,11790,1,0,0:0:0:70:bassdrum.wav
256,192,12442,1,0,0:0:0:70:bassdrum.wav
256,192,12659,1,0,0:0:0:70:bassdrum.wav
36,192,12985,1,0,0:0:0:0:
256,192,12985,1,0,0:0:0:70:bassdrum.wav
109,192,13312,1,0,0:0:0:0:
329,192,13312,1,0,0:0:0:70:bassdrum.wav
475,192,13529,128,0,14181:0:0:0:0:
36,192,13529,128,0,14399:0:0:0:0:
256,192,13529,128,0,13964:0:0:0:0:
182,192,13529,1,0,0:0:0:0:
402,192,13746,128,0,13964:0:0:0:0:
329,192,13746,1,0,0:0:0:70:bassdrum.wav
182,192,13964,128,0,14399:0:0:0:0:
109,192,13964,1,0,0:0:0:70:bassdrum.wav
329,192,14181,128,0,14399:0:0:0:0:
256,192,14181,1,0,0:0:0:70:bassdrum.wav
402,192,14399,128,0,14833:0:0:0:0:
475,192,14399,1,0,0:0:0:70:cymbol.wav
109,192,14399,1,0,0:0:0:70:bassdrum.wav
36,192,14616,1,0,0:0:0:0:
109,192,14833,128,0,15051:0:0:0:0:
329,192,14833,1,0,0:0:0:0:
182,192,14833,1,0,0:0:0:70:bassdrum.wav
256,192,15051,128,0,15268:0:0:0:0:
475,192,15051,1,0,0:0:0:0:
36,192,15268,128,0,16138:0:0:0:0:
109,192,15268,1,0,0:0:0:70:bassdrum.wav
182,192,15377,1,0,0:0:0:0:
475,192,15485,1,0,0:0:0:0:
329,192,15594,1,0,0:0:0:0:
109,192,15703,1,0,0:0:0:70:bassdrum.wav
475,192,15703,1,0,0:0:0:0:
182,192,15812,1,0,0:0:0:0:
475,192,15920,1,0,0:0:0:0:
329,192,16029,1,0,0:0:0:0:
256,192,16138,128,0,16572:0:0:0:0:
182,192,16138,1,0,0:0:0:70:cymbol.wav
402,192,16138,1,0,0:0:0:70:bassdrum.wav
36,192,16355,1,0,0:0:0:0:
109,192,16355,1,0,0:0:0:0:
475,192,16572,128,0,16790:0:0:0:0:
329,192,16572,1,0,0:0:0:0:
182,192,16572,1,0,0:0:0:70:bassdrum.wav
329,192,16790,128,0,17007:0:0:0:0:
109,192,16790,1,0,0:0:0:0:
182,192,17007,128,0,17877:0:0:0:0:
36,192,17007,1,0,0:0:0:70:bassdrum.wav
402,192,17116,1,0,0:0:0:0:
475,192,17225,1,0,0:0:0:0:
329,192,17333,1,0,0:0:0:0:
36,192,17442,1,0,0:0:0:0:
109,192,17442,1,0,0:0:0:70:bassdrum.wav
475,192,17659,1,0,0:0:0:0:
329,192,17659,1,0,0:0:0:0:
36,192,17877,128,0,18746:0:0:0:0:
256,192,17877,1,0,0:0:0:70:bassdrum.wav
109,192,17877,1,0,0:0:0:70:cymbol.wav
475,192,18094,128,0,18746:0:0:0:0:
329,192,18094,1,0,0:0:0:0:
182,192,18312,128,0,18746:0:0:0:0:
109,192,18312,1,0,0:0:0:0:
256,192,18312,1,0,0:0:0:70:bassdrum.wav
329,192,18529,128,0,18746:0:0:0:0:
402,192,18529,1,0,0:0:0:0:
109,192,18746,128,0,19616:0:0:0:0:
256,192,18746,1,0,0:0:0:70:bassdrum.wav
329,192,18855,1,0,0:0:0:0:
256,192,18964,128,0,19181:0:0:0:0:
402,192,18964,1,0,0:0:0:0:
329,192,19181,128,0,19616:0:0:0:0:
182,192,19181,1,0,0:0:0:70:bassdrum.wav
36,192,19181,1,0,0:0:0:0:
475,192,19399,128,0,19616:0:0:0:0:
256,192,19399,1,0,0:0:0:0:
402,192,19616,128,0,20268:0:0:0:0:
36,192,19616,1,0,0:0:0:70:cymbol.wav
36,192,19833,128,0,20051:0:0:0:0:
182,192,19833,1,0,0:0:0:0:
256,192,20051,128,0,20485:0:0:0:0:
329,192,20051,1,0,0:0:0:0:
475,192,20051,1,0,0:0:0:70:bassdrum.wav
109,192,20268,128,0,20485:0:0:0:0:
182,192,20268,1,0,0:0:0:0:
329,192,20485,1,0,0:0:0:0:
475,192,20485,1,0,0:0:0:70:bassdrum.wav
36,192,20485,128,0,21138:0:0:0:0:
402,192,20485,1,0,0:0:0:0:
329,192,20703,1,0,0:0:0:0:
475,192,20703,1,0,0:0:0:70:bassdrum.wav
402,192,20703,1,0,0:0:0:0:
329,192,20920,1,0,0:0:0:0:
475,192,20920,1,0,0:0:0:70:bassdrum.wav
402,192,20920,1,0,0:0:0:0:
329,192,21138,1,0,0:0:0:0:
475,192,21138,1,0,0:0:0:70:bassdrum.wav
402,192,21138,1,0,0:0:0:0:
109,192,21355,128,0,21790:0:0:0:0:
36,192,21355,1,0,0:0:0:70:cymbol.wav
256,192,21355,1,0,0:0:0:70:bassdrum.wav
402,192,21572,1,0,0:0:0:0:
475,192,21572,1,0,0:0:0:0:
256,192,21790,128,0,22007:0:0:0:0:
329,192,21790,1,0,0:0:0:70:snare.wav
36,192,21790,1,0,0:0:0:0:
182,192,22007,128,0,22225:0:0:0:0:
402,192,22007,1,0,0:0:0:0:
36,192,22225,128,0,23094:0:0:0:0:
109,192,22225,1,0,0:0:0:0:
475,192,22225,1,0,0:0:0:70:bassdrum.wav
329,192,22333,1,0,0:0:0:70:snare.wav
402,192,22442,1,0,0:0:0:0:
256,192,22551,1,0,0:0:0:0:
109,192,22659,1,0,0:0:0:70:snare.wav
329,192,22768,1,0,0:0:0:0:
402,192,22877,1,0,0:0:0:0:
256,192,22985,1,0,0:0:0:0:
329,192,23094,128,0,23529:0:0:0:0:
182,192,23094,1,0,0:0:0:70:bassdrum.wav
475,192,23094,1,0,0:0:0:70:cymbol.wav
109,192,23312,1,0,0:0:0:0:
256,192,23312,1,0,0:0:0:0:
402,192,23529,128,0,23746:0:0:0:0:
36,192,23529,1,0,0:0:0:0:
182,192,23529,1,0,0:0:0:70:snare.wav
256,192,23746,128,0,23964:0:0:0:0:
329,192,23746,1,0,0:0:0:0:
475,192,23746,1,0,0:0:0:0:
109,192,23964,128,0,24399:0:0:0:0:
36,192,23964,1,0,0:0:0:0:
182,192,23964,1,0,0:0:0:70:bassdrum.wav
329,192,24072,1,0,0:0:0:70:snare.wav
402,192,24181,1,0,0:0:0:0:
256,192,24290,1,0,0:0:0:0:
36,192,24399,128,0,24616:0:0:0:0:
182,192,24399,1,0,0:0:0:70:snare.wav
256,192,24616,128,0,24833:0:0:0:0:
475,192,24616,1,0,0:0:0:0:
182,192,24833,1,0,0:0:0:70:cymbol.wav
36,192,24833,128,0,25051:0:0:0:0:
475,192,24833,128,0,25159:0:0:0:0:
402,192,24833,128,0,26029:0:0:0:0:
329,192,24833,128,0,26899:0:0:0:0:
109,192,25051,1,0,0:0:0:0:
475,192,25268,128,0,27333:0:0:0:0:
36,192,25268,1,0,0:0:0:70:snare.wav
256,192,25268,1,0,0:0:0:70:bassdrum.wav
182,192,25485,1,0,0:0:0:0:
109,192,25703,128,0,25920:0:0:0:0:
36,192,25703,1,0,0:0:0:70:cymbol.wav
256,192,25703,1,0,0:0:0:70:bassdrum.wav
182,192,25920,1,0,0:0:0:0:
36,192,26138,1,0,0:0:0:70:snare.wav
256,192,26138,1,0,0:0:0:70:bassdrum.wav
402,192,26138,128,0,27333:0:0:0:0:
109,192,26355,1,0,0:0:0:0:
36,192,26572,128,0,26790:0:0:0:0:
182,192,26572,1,0,0:0:0:70:cymbol.wav
256,192,26572,1,0,0:0:0:70:bassdrum.wav
109,192,26790,1,0,0:0:0:0:
329,192,27007,128,0,27333:0:0:0:0:
36,192,27007,1,0,0:0:0:0:
182,192,27007,1,0,0:0:0:70:snare.wav
256,192,27225,1,0,0:0:0:0:
109,192,27442,128,0,27877:0:0:0:0:
36,192,27442,1,0,0:0:0:70:bassdrum.wav
182,192,27442,1,0,0:0:0:70:cymbol.wav
329,192,27442,1,0,0:0:0:0:
402,192,27442,128,0,27659:0:0:0:0:
475,192,27442,128,0,27659:0:0:0:0:
329,192,27659,128,0,28094:0:0:0:0:
256,192,27659,1,0,0:0:0:0:
182,192,27877,128,0,28312:0:0:0:0:
36,192,27877,1,0,0:0:0:70:snare.wav
402,192,27877,1,0,0:0:0:0:
475,192,27877,1,0,0:0:0:0:
475,192,28094,128,0,28529:0:0:0:0:
402,192,28094,1,0,0:0:0:0:
36,192,28312,128,0,30051:0:0:0:0:
402,192,28312,1,0,0:0:0:0:
109,192,28312,1,0,0:0:0:70:bassdrum.wav
329,192,28420,1,0,0:0:0:0:
256,192,28529,1,0,0:0:0:0:
182,192,28638,1,0,0:0:0:0:
256,192,28746,1,0,0:0:0:70:snare.wav
109,192,28746,128,0,29181:0:0:0:0:
329,192,28746,1,0,0:0:0:0:
402,192,28964,1,0,0:0:0:0:
475,192,28964,1,0,0:0:0:0:
329,192,29181,128,0,29290:0:0:0:0:
182,192,29181,1,0,0:0:0:70:bassdrum.wav
475,192,29290,128,0,29399:0:0:0:0:
256,192,29399,128,0,29507:0:0:0:0:
109,192,29399,1,0,0:0:0:0:
402,192,29507,128,0,29616:0:0:0:0:
182,192,29616,128,0,29725:0:0:0:0:
475,192,29616,1,0,0:0:0:70:snare.wav
329,192,29725,128,0,29833:0:0:0:0:
109,192,29833,128,0,29942:0:0:0:0:
402,192,29833,1,0,0:0:0:0:
256,192,29942,128,0,30051:0:0:0:0:
475,192,30051,128,0,30268:0:0:0:0:
329,192,30051,1,0,0:0:0:0:
182,192,30051,1,0,0:0:0:0:
402,192,30159,128,0,30377:0:0:0:0:
256,192,30268,128,0,30485:0:0:0:0:
109,192,30377,128,0,30594:0:0:0:0:
36,192,30485,128,0,30703:0:0:0:0:
182,192,30594,128,0,30812:0:0:0:0:
329,192,30703,128,0,30920:0:0:0:0:
475,192,30812,128,0,31029:0:0:0:0:
256,192,30920,128,0,31790:0:0:0:0:
36,192,30920,1,0,0:0:0:70:bassdrum.wav
109,192,31029,1,0,0:0:0:0:
182,192,31138,1,0,0:0:0:0:
475,192,31138,1,0,0:0:0:0:
402,192,31246,1,0,0:0:0:0:
329,192,31355,1,0,0:0:0:70:bassdrum.wav
36,192,31355,1,0,0:0:0:0:
109,192,31464,1,0,0:0:0:0:
329,192,31572,1,0,0:0:0:70:bassdrum.wav
182,192,31572,1,0,0:0:0:0:
402,192,31681,1,0,0:0:0:70:bassdrum.wav
109,192,31681,1,0,0:0:0:0:
329,192,31790,1,0,0:0:0:0:
36,192,31790,1,0,0:0:0:0:
182,192,31790,1,0,0:0:0:0:
475,192,31790,1,0,0:0:0:70:bassdrum.wav
402,192,32442,1,0,0:0:0:0:
182,192,32659,1,0,0:0:0:0:
402,192,32768,1,0,0:0:0:0:
109,192,33094,1,0,0:0:0:0:
329,192,33094,1,0,0:0:0:0:
36,192,33312,1,0,0:0:0:0:
256,192,33312,1,0,0:0:0:70:bassdrum.wav
402,192,33312,1,0,0:0:0:0:
109,192,33529,1,0,0:0:0:0:
256,192,33529,1,0,0:0:0:70:bassdrum.wav
475,192,33529,1,0,0:0:0:0:
329,192,33855,1,0,0:0:0:0:
182,192,34181,1,0,0:0:0:0:
36,192,34399,1,0,0:0:0:0:
329,192,34507,1,0,0:0:0:0:
36,192,34833,1,0,0:0:0:0:
256,192,35051,1,0,0:0:0:0:
475,192,35051,1,0,0:0:0:0:
36,192,35268,1,0,0:0:0:0:
182,192,35268,1,0,0:0:0:70:cymbol.wav
402,192,35268,1,0,0:0:0:70:bassdrum.wav
109,192,35594,1,0,0:0:0:0:
36,192,35920,1,0,0:0:0:0:
329,192,36138,1,0,0:0:0:0:
475,192,36246,1,0,0:0:0:0:
36,192,36572,1,0,0:0:0:0:
256,192,36572,1,0,0:0:0:0:
329,192,36790,1,0,0:0:0:0:
109,192,36790,1,0,0:0:0:70:bassdrum.wav
475,192,36790,1,0,0:0:0:0:
256,192,37007,1,0,0:0:0:70:bassdrum.wav
475,192,37007,1,0,0:0:0:0:
182,192,37007,1,0,0:0:0:0:
36,192,37333,1,0,0:0:0:0:
256,192,37333,1,0,0:0:0:0:
256,192,37659,1,0,0:0:0:0:
475,192,37659,1,0,0:0:0:0:
109,192,37877,1,0,0:0:0:70:bassdrum.wav
402,192,37877,1,0,0:0:0:70:cymbol.wav
475,192,37877,128,0,38746:0:0:0:0:
36,192,37877,128,0,38746:0:0:0:0:
182,192,38094,1,0,0:0:0:0:
329,192,38094,1,0,0:0:0:0:
182,192,38312,128,0,38746:0:0:0:0:
256,192,38312,1,0,0:0:0:70:cymbol.wav
329,192,38312,128,0,38746:0:0:0:0:
109,192,38529,1,0,0:0:0:0:
402,192,38529,1,0,0:0:0:0:
402,192,38746,128,0,39616:0:0:0:0:
109,192,38746,1,0,0:0:0:70:cymbol.wav
329,192,38964,1,0,0:0:0:0:
256,192,39181,1,0,0:0:0:70:bassdrum.wav
36,192,39181,1,0,0:0:0:0:
182,192,39399,1,0,0:0:0:0:
475,192,39616,128,0,40485:0:0:0:0:
329,192,39616,1,0,0:0:0:70:bassdrum.wav
36,192,39616,1,0,0:0:0:0:
109,192,39725,1,0,0:0:0:0:
182,192,39833,1,0,0:0:0:0:
36,192,40051,128,0,40485:0:0:0:0:
256,192,40051,1,0,0:0:0:70:bassdrum.wav
402,192,40051,1,0,0:0:0:0:
182,192,40268,1,0,0:0:0:0:
329,192,40485,128,0,41355:0:0:0:0:
109,192,40485,1,0,0:0:0:70:bassdrum.wav
402,192,40485,1,0,0:0:0:70:cymbol.wav
256,192,40703,1,0,0:0:0:0:
182,192,40920,1,0,0:0:0:70:bassdrum.wav
36,192,40920,1,0,0:0:0:0:
475,192,41138,1,0,0:0:0:0:
109,192,41355,1,0,0:0:0:0:
402,192,41355,1,0,0:0:0:70:bassdrum.wav
182,192,41355,128,0,42225:0:0:0:0:
475,192,41464,1,0,0:0:0:0:
329,192,41572,1,0,0:0:0:0:
256,192,41790,1,0,0:0:0:70:bassdrum.wav
109,192,41790,1,0,0:0:0:0:
36,192,41790,1,0,0:0:0:0:
329,192,42007,128,0,42225:0:0:0:0:
109,192,42007,1,0,0:0:0:0:
402,192,42007,1,0,0:0:0:70:bassdrum.wav
36,192,42007,1,0,0:0:0:0:
256,192,42225,1,0,0:0:0:70:bassdrum.wav
109,192,42225,128,0,43094:0:0:0:0:
36,192,42225,1,0,0:0:0:70:cymbol.wav
475,192,42225,128,0,42659:0:0:0:0:
329,192,42442,1,0,0:0:0:0:
256,192,42659,1,0,0:0:0:70:bassdrum.wav
182,192,42659,1,0,0:0:0:0:
402,192,42659,128,0,43094:0:0:0:0:
329,192,42877,1,0,0:0:0:0:
36,192,43094,128,0,43964:0:0:0:0:
475,192,43094,1,0,0:0:0:70:cymbol.wav
256,192,43094,128,0,43529:0:0:0:0:
182,192,43094,1,0,0:0:0:70:bassdrum.wav
402,192,43312,1,0,0:0:0:0:
329,192,43529,1,0,0:0:0:0:
475,192,43529,128,0,43964:0:0:0:0:
109,192,43529,1,0,0:0:0:70:bassdrum.wav
256,192,43746,1,0,0:0:0:0:
402,192,43964,1,0,0:0:0:70:bassdrum.wav
329,192,43964,128,0,44833:0:0:0:0:
182,192,43964,1,0,0:0:0:70:cymbol.wav
36,192,44399,1,0,0:0:0:70:snare.wav
182,192,44399,1,0,0:0:0:0:
36,192,44616,1,0,0:0:0:0:
402,192,44725,1,0,0:0:0:0:
182,192,44725,1,0,0:0:0:70:snare.wav
256,192,44833,1,0,0:0:0:0:
109,192,44833,1,0,0:0:0:70:bassdrum.wav
36,192,44942,1,0,0:0:0:70:snare.wav
402,192,44942,1,0,0:0:0:0:
256,192,45051,1,0,0:0:0:0:
109,192,45051,1,0,0:0:0:0:
256,192,45268,1,0,0:0:0:70:bassdrum.wav
475,192,45268,128,0,45703:0:0:0:0:
36,192,45268,1,0,0:0:0:70:snare.wav
109,192,45485,1,0,0:0:0:70:snare.wav
182,192,45594,1,0,0:0:0:70:snare.wav
256,192,45703,1,0,0:0:0:70:bassdrum.wav
329,192,45703,128,0,46138:0:0:0:0:
36,192,45703,1,0,0:0:0:70:cymbol.wav
402,192,45920,1,0,0:0:0:0:
109,192,46138,1,0,0:0:0:70:bassdrum.wav
256,192,46138,1,0,0:0:0:70:snare.wav
36,192,46138,128,0,46572:0:0:0:0:
329,192,46355,1,0,0:0:0:0:
402,192,46464,1,0,0:0:0:70:snare.wav
182,192,46572,1,0,0:0:0:0:
256,192,46572,128,0,47007:0:0:0:0:
475,192,46572,1,0,0:0:0:70:bassdrum.wav
402,192,46790,1,0,0:0:0:0:
109,192,47007,128,0,47442:0:0:0:0:
36,192,47007,1,0,0:0:0:70:bassdrum.wav
475,192,47007,1,0,0:0:0:70:snare.wav
329,192,47225,1,0,0:0:0:0:
402,192,47442,1,0,0:0:0:70:bassdrum.wav
182,192,47442,1,0,0:0:0:0:
329,192,47442,128,0,47877:0:0:0:0:
36,192,47659,1,0,0:0:0:0:
256,192,47877,128,0,48094:0:0:0:0:
475,192,47877,128,0,48529:0:0:0:0:
182,192,47877,1,0,0:0:0:70:snare.wav
109,192,48094,1,0,0:0:0:0:
402,192,48312,128,0,48529:0:0:0:0:
36,192,48312,1,0,0:0:0:0:
182,192,48312,1,0,0:0:0:70:bassdrum.wav
256,192,48420,1,0,0:0:0:70:snare.wav
329,192,48529,1,0,0:0:0:0:
256,192,48746,128,0,49181:0:0:0:0:
475,192,48746,1,0,0:0:0:70:bassdrum.wav
36,192,48746,1,0,0:0:0:0:
402,192,48746,1,0,0:0:0:70:snare.wav
109,192,48964,128,0,49181:0:0:0:0:
182,192,48964,1,0,0:0:0:70:bassdrum.wav
475,192,49181,128,0,49833:0:0:0:0:
36,192,49181,1,0,0:0:0:70:cymbol.wav
402,192,49181,1,0,0:0:0:70:bassdrum.wav
329,192,49181,128,0,49399:0:0:0:0:
182,192,49399,1,0,0:0:0:0:
182,192,49616,128,0,50051:0:0:0:0:
36,192,49616,1,0,0:0:0:70:snare.wav
402,192,49616,128,0,49833:0:0:0:0:
109,192,49833,1,0,0:0:0:0:
475,192,50051,128,0,50920:0:0:0:0:
329,192,50051,1,0,0:0:0:70:bassdrum.wav
36,192,50051,1,0,0:0:0:0:
402,192,50268,128,0,50920:0:0:0:0:
256,192,50268,1,0,0:0:0:0:
329,192,50485,128,0,50920:0:0:0:0:
109,192,50485,1,0,0:0:0:70:snare.wav
256,192,50703,128,0,50920:0:0:0:0:
182,192,50703,1,0,0:0:0:0:
36,192,50920,128,0,51355:0:0:0:0:
109,192,50920,1,0,0:0:0:70:bassdrum.wav
182,192,51138,1,0,0:0:0:0:
329,192,51355,128,0,51572:0:0:0:0:
475,192,51355,1,0,0:0:0:70:snare.wav
182,192,51572,128,0,52007:0:0:0:0:
402,192,51572,1,0,0:0:0:0:
109,192,51790,1,0,0:0:0:0:
475,192,51790,1,0,0:0:0:70:bassdrum.wav
36,192,51790,128,0,52007:0:0:0:0:
402,192,51899,1,0,0:0:0:70:snare.wav
329,192,52007,1,0,0:0:0:0:
109,192,52225,128,0,52659:0:0:0:0:
182,192,52225,1,0,0:0:0:70:bassdrum.wav
402,192,52225,1,0,0:0:0:70:snare.wav
402,192,52442,1,0,0:0:0:70:snare.wav
256,192,52551,1,0,0:0:0:70:snare.wav
182,192,52659,1,0,0:0:0:70:cymbol.wav
36,192,52659,128,0,54399:0:0:0:0:
329,192,52659,1,0,0:0:0:70:bassdrum.wav
475,192,52659,128,0,53094:0:0:0:0:
256,192,52877,128,0,53312:0:0:0:0:
109,192,53094,128,0,53529:0:0:0:0:
182,192,53094,1,0,0:0:0:70:snare.wav
329,192,53312,128,0,53529:0:0:0:0:
402,192,53312,1,0,0:0:0:0:
475,192,53529,128,0,53638:0:0:0:0:
182,192,53529,128,0,53964:0:0:0:0:
402,192,53638,128,0,53746:0:0:0:0:
329,192,53746,128,0,53855:0:0:0:0:
256,192,53855,128,0,53964:0:0:0:0:
402,192,53964,1,0,0:0:0:70:snare.wav
109,192,53964,128,0,54399:0:0:0:0:
475,192,53964,128,0,54181:0:0:0:0:
329,192,54181,128,0,54399:0:0:0:0:
475,192,54399,128,0,56138:0:0:0:0:
182,192,54399,128,0,54833:0:0:0:0:
329,192,54616,1,0,0:0:0:0:
402,192,54616,128,0,55051:0:0:0:0:
36,192,54833,128,0,55268:0:0:0:0:
109,192,54833,1,0,0:0:0:70:snare.wav
329,192,55051,1,0,0:0:0:0:
256,192,55051,128,0,55268:0:0:0:0:
109,192,55268,128,0,55703:0:0:0:0:
402,192,55268,128,0,55377:0:0:0:0:
329,192,55377,128,0,55485:0:0:0:0:
256,192,55485,128,0,55594:0:0:0:0:
182,192,55594,128,0,55703:0:0:0:0:
36,192,55703,1,0,0:0:0:70:snare.wav
329,192,55703,128,0,56138:0:0:0:0:
182,192,55920,128,0,56138:0:0:0:0:
36,192,56138,128,0,56572:0:0:0:0:
402,192,56138,128,0,56572:0:0:0:0:
109,192,56138,1,0,0:0:0:70:cymbol.wav
182,192,56355,1,0,0:0:0:0:
256,192,56572,1,0,0:0:0:70:bassdrum.wav
475,192,56572,1,0,0:0:0:70:snare.wav
109,192,56572,128,0,57007:0:0:0:0:
402,192,56790,128,0,57007:0:0:0:0:
329,192,56790,1,0,0:0:0:0:
36,192,57007,1,0,0:0:0:0:
256,192,57007,1,0,0:0:0:70:bassdrum.wav
475,192,57007,128,0,57442:0:0:0:0:
182,192,57116,1,0,0:0:0:0:
329,192,57225,128,0,57442:0:0:0:0:
109,192,57225,1,0,0:0:0:0:
36,192,57442,128,0,57877:0:0:0:0:
402,192,57442,1,0,0:0:0:70:snare.wav
182,192,57659,128,0,57877:0:0:0:0:
256,192,57659,1,0,0:0:0:0:
475,192,57659,1,0,0:0:0:0:
329,192,57877,128,0,57985:0:0:0:0:
402,192,57877,128,0,57985:0:0:0:0:
109,192,57877,1,0,0:0:0:70:cymbol.wav
256,192,57985,128,0,58203:0:0:0:0:
475,192,57985,128,0,58312:0:0:0:0:
329,192,58312,128,0,58420:0:0:0:0:
182,192,58312,128,0,58420:0:0:0:0:
36,192,58312,1,0,0:0:0:70:snare.wav
109,192,58420,128,0,58638:0:0:0:0:
256,192,58420,128,0,58746:0:0:0:0:
36,192,58746,128,0,58855:0:0:0:0:
182,192,58746,128,0,58855:0:0:0:0:
475,192,58746,1,0,0:0:0:70:bassdrum.wav
109,192,58855,128,0,59181:0:0:0:0:
402,192,58855,128,0,59072:0:0:0:0:
256,192,59181,1,0,0:0:0:70:bassdrum.wav
329,192,59181,1,0,0:0:0:0:
475,192,59181,1,0,0:0:0:70:snare.wav
256,192,59399,1,0,0:0:0:70:bassdrum.wav
329,192,59399,1,0,0:0:0:0:
475,192,59399,1,0,0:0:0:0:
36,192,59616,1,0,0:0:0:0:
182,192,59616,1,0,0:0:0:0:
402,192,59616,1,0,0:0:0:70:bassdrum.wav
475,192,59725,1,0,0:0:0:0:
256,192,59725,1,0,0:0:0:0:
36,192,59942,1,0,0:0:0:0:
182,192,59942,1,0,0:0:0:70:bassdrum.wav
329,192,60051,1,0,0:0:0:0:
402,192,60051,1,0,0:0:0:0:
109,192,60051,1,0,0:0:0:70:bassdrum.wav
256,192,60268,1,0,0:0:0:70:bassdrum.wav
36,192,60268,1,0,0:0:0:0:
109,192,60377,1,0,0:0:0:70:bassdrum.wav
402,192,60377,1,0,0:0:0:0:
475,192,60485,128,0,61246:0:0:0:0:
329,192,60485,128,0,60703:0:0:0:0:
402,192,60703,128,0,61246:0:0:0:0:
256,192,60703,128,0,60920:0:0:0:0:
182,192,60920,128,0,61138:0:0:0:0:
329,192,60920,128,0,61138:0:0:0:0:
256,192,61138,128,0,61355:0:0:0:0:
109,192,61138,128,0,61355:0:0:0:0:
36,192,61355,128,0,61790:0:0:0:0:
182,192,61355,1,0,0:0:0:70:cymbol.wav
402,192,61355,1,0,0:0:0:70:bassdrum.wav
475,192,61355,1,0,0:0:0:0:
329,192,61464,1,0,0:0:0:0:
182,192,61572,1,0,0:0:0:0:
475,192,61572,128,0,62007:0:0:0:0:
329,192,61681,1,0,0:0:0:0:
109,192,61790,128,0,62225:0:0:0:0:
256,192,61790,1,0,0:0:0:70:snare.wav
402,192,61790,1,0,0:0:0:70:bassdrum.wav
402,192,62007,1,0,0:0:0:0:
329,192,62007,1,0,0:0:0:0:
182,192,62225,1,0,0:0:0:0:
36,192,62225,128,0,63094:0:0:0:0:
329,192,62225,1,0,0:0:0:70:bassdrum.wav
256,192,62333,1,0,0:0:0:70:snare.wav
475,192,62442,1,0,0:0:0:0:
329,192,62551,1,0,0:0:0:0:
182,192,62659,1,0,0:0:0:70:snare.wav
256,192,62768,1,0,0:0:0:0:
475,192,62877,1,0,0:0:0:0:
329,192,62985,1,0,0:0:0:0:
109,192,63094,1,0,0:0:0:70:bassdrum.wav
256,192,63094,1,0,0:0:0:0:
402,192,63203,1,0,0:0:0:0:
182,192,63312,1,0,0:0:0:0:
402,192,63420,1,0,0:0:0:0:
256,192,63529,1,0,0:0:0:70:snare.wav
475,192,63529,1,0,0:0:0:70:bassdrum.wav
182,192,63529,128,0,63964:0:0:0:0:
329,192,63746,1,0,0:0:0:0:
402,192,63746,1,0,0:0:0:0:
109,192,63964,128,0,64833:0:0:0:0:
36,192,63964,1,0,0:0:0:0:
329,192,63964,1,0,0:0:0:70:bassdrum.wav
402,192,64072,1,0,0:0:0:70:snare.wav
475,192,64181,1,0,0:0:0:0:
256,192,64290,1,0,0:0:0:0:
329,192,64399,1,0,0:0:0:70:bassdrum.wav
402,192,64399,1,0,0:0:0:70:snare.wav
182,192,64616,1,0,0:0:0:0:
329,192,64833,128,0,65051:0:0:0:0:
475,192,64833,128,0,65051:0:0:0:0:
36,192,64833,1,0,0:0:0:70:bassdrum.wav
182,192,65051,128,0,65268:0:0:0:0:
402,192,65051,128,0,65268:0:0:0:0:
109,192,65051,1,0,0:0:0:0:
256,192,65268,128,0,65485:0:0:0:0:
36,192,65268,128,0,65485:0:0:0:0:
475,192,65268,1,0,0:0:0:70:snare.wav
109,192,65485,128,0,65703:0:0:0:0:
475,192,65485,128,0,65703:0:0:0:0:
329,192,65485,1,0,0:0:0:0:
329,192,65703,128,0,65920:0:0:0:0:
402,192,65703,128,0,65920:0:0:0:0:
36,192,65703,1,0,0:0:0:70:bassdrum.wav
109,192,65812,1,0,0:0:0:70:snare.wav
475,192,65920,128,0,66138:0:0:0:0:
182,192,65920,1,0,0:0:0:0:
109,192,66029,1,0,0:0:0:0:
329,192,66138,128,0,66355:0:0:0:0:
402,192,66138,128,0,66355:0:0:0:0:
256,192,66138,1,0,0:0:0:0:
36,192,66138,1,0,0:0:0:70:snare.wav
182,192,66246,1,0,0:0:0:0:
475,192,66355,128,0,66572:0:0:0:0:
109,192,66355,1,0,0:0:0:70:bassdrum.wav
182,192,66464,1,0,0:0:0:0:
36,192,66572,1,0,0:0:0:0:
256,192,66572,1,0,0:0:0:70:bassdrum.wav
329,192,66572,128,0,67007:0:0:0:0:
109,192,66681,1,0,0:0:0:0:
402,192,66790,1,0,0:0:0:0:
182,192,66899,1,0,0:0:0:0:
36,192,67007,1,0,0:0:0:0:
475,192,67007,1,0,0:0:0:70:snare.wav
256,192,67007,128,0,67225:0:0:0:0:
109,192,67116,1,0,0:0:0:0:
402,192,67225,1,0,0:0:0:0:
182,192,67225,128,0,67442:0:0:0:0:
329,192,67333,1,0,0:0:0:0:
109,192,67442,1,0,0:0:0:0:
475,192,67442,1,0,0:0:0:70:bassdrum.wav
36,192,67442,128,0,68312:0:0:0:0:
402,192,67551,1,0,0:0:0:70:snare.wav
256,192,67551,1,0,0:0:0:0:
329,192,67659,1,0,0:0:0:0:
109,192,67659,1,0,0:0:0:0:
256,192,67768,1,0,0:0:0:0:
402,192,67768,1,0,0:0:0:0:
329,192,67877,1,0,0:0:0:0:
109,192,67877,1,0,0:0:0:70:bassdrum.wav
475,192,67877,1,0,0:0:0:70:snare.wav
402,192,68094,1,0,0:0:0:0:
256,192,68094,1,0,0:0:0:0:
109,192,68094,1,0,0:0:0:70:bassdrum.wav
475,192,68312,128,0,69833:0:0:0:0:
182,192,68312,1,0,0:0:0:70:cymbol.wav
402,192,68420,1,0,0:0:0:0:
256,192,68529,1,0,0:0:0:0:
109,192,68638,1,0,0:0:0:0:
402,192,68746,128,0,69181:0:0:0:0:
329,192,68746,1,0,0:0:0:70:snare.wav
182,192,68855,1,0,0:0:0:0:
36,192,68964,1,0,0:0:0:0:
256,192,69072,1,0,0:0:0:0:
109,192,69181,128,0,69616:0:0:0:0:
182,192,69181,1,0,0:0:0:70:bassdrum.wav
36,192,69290,1,0,0:0:0:70:snare.wav
256,192,69399,1,0,0:0:0:0:
402,192,69507,1,0,0:0:0:0:
36,192,69616,1,0,0:0:0:70:snare.wav
329,192,69616,128,0,70051:0:0:0:0:
256,192,69725,1,0,0:0:0:0:
182,192,69833,1,0,0:0:0:0:
109,192,69942,1,0,0:0:0:0:
36,192,70051,128,0,71572:0:0:0:0:
475,192,70051,1,0,0:0:0:70:bassdrum.wav
329,192,70159,1,0,0:0:0:0:
182,192,70268,1,0,0:0:0:0:
256,192,70377,1,0,0:0:0:0:
402,192,70485,128,0,70920:0:0:0:0:
109,192,70485,1,0,0:0:0:70:snare.wav
475,192,70594,1,0,0:0:0:0:
182,192,70703,1,0,0:0:0:0:
256,192,70812,1,0,0:0:0:0:
182,192,70920,128,0,71355:0:0:0:0:
329,192,70920,1,0,0:0:0:70:bassdrum.wav
109,192,71029,1,0,0:0:0:70:snare.wav
256,192,71138,1,0,0:0:0:0:
475,192,71246,1,0,0:0:0:0:
329,192,71355,128,0,71790:0:0:0:0:
109,192,71355,1,0,0:0:0:70:snare.wav
256,192,71572,1,0,0:0:0:70:bassdrum.wav
182,192,71572,1,0,0:0:0:0:
256,192,71790,1,0,0:0:0:70:cymbol.wav
402,192,71790,128,0,73529:0:0:0:0:
36,192,71790,128,0,72333:0:0:0:0:
109,192,71790,128,0,72225:0:0:0:0:
182,192,71790,128,0,72116:0:0:0:0:
475,192,72007,1,0,0:0:0:0:
329,192,72225,1,0,0:0:0:70:snare.wav
256,192,72225,1,0,0:0:0:70:bassdrum.wav
182,192,72225,128,0,72768:0:0:0:0:
109,192,72333,128,0,72659:0:0:0:0:
475,192,72442,1,0,0:0:0:0:
36,192,72442,128,0,72551:0:0:0:0:
329,192,72659,1,0,0:0:0:70:cymbol.wav
256,192,72659,1,0,0:0:0:70:bassdrum.wav
36,192,72659,128,0,73203:0:0:0:0:
109,192,72768,128,0,73094:0:0:0:0:
475,192,72877,1,0,0:0:0:0:
182,192,72877,128,0,72985:0:0:0:0:
329,192,73094,1,0,0:0:0:70:snare.wav
256,192,73094,1,0,0:0:0:70:bassdrum.wav
182,192,73094,128,0,73638:0:0:0:0:
109,192,73203,128,0,73529:0:0:0:0:
475,192,73312,1,0,0:0:0:0:
36,192,73312,128,0,73420:0:0:0:0:
329,192,73529,1,0,0:0:0:70:cymbol.wav
36,192,73529,128,0,73855:0:0:0:0:
256,192,73638,128,0,73746:0:0:0:0:
109,192,73638,128,0,73964:0:0:0:0:
329,192,73746,128,0,73855:0:0:0:0:
182,192,73746,128,0,74072:0:0:0:0:
402,192,73855,128,0,73964:0:0:0:0:
256,192,73855,128,0,74181:0:0:0:0:
475,192,73964,128,0,74072:0:0:0:0:
329,192,73964,128,0,74290:0:0:0:0:
402,192,74072,128,0,74399:0:0:0:0:
475,192,74181,128,0,74507:0:0:0:0:
36,192,74399,1,0,0:0:0:70:bassdrum.wav
256,192,74399,128,0,75268:0:0:0:0:
109,192,74507,1,0,0:0:0:0:
182,192,74616,1,0,0:0:0:0:
475,192,74616,1,0,0:0:0:0:
402,192,74725,1,0,0:0:0:0:
329,192,74833,1,0,0:0:0:70:bassdrum.wav
36,192,74833,1,0,0:0:0:70:snare.wav
109,192,74942,1,0,0:0:0:0:
182,192,75051,1,0,0:0:0:70:bassdrum.wav
329,192,75051,1,0,0:0:0:0:
109,192,75159,1,0,0:0:0:0:
402,192,75159,1,0,0:0:0:0:
182,192,75268,128,0,76790:0:0:0:0:
329,192,75268,128,0,75703:0:0:0:0:
36,192,75268,1,0,0:0:0:70:bassdrum.wav
475,192,75268,1,0,0:0:0:70:cymbol.wav
109,192,75377,1,0,0:0:0:0:
402,192,75485,1,0,0:0:0:0:
256,192,75594,1,0,0:0:0:0:
475,192,75703,128,0,75920:0:0:0:0:
36,192,75703,1,0,0:0:0:70:snare.wav
256,192,75812,1,0,0:0:0:0:
36,192,75920,128,0,76355:0:0:0:0:
402,192,75920,1,0,0:0:0:0:
329,192,76029,1,0,0:0:0:0:
109,192,76138,1,0,0:0:0:70:bassdrum.wav
475,192,76246,1,0,0:0:0:70:snare.wav
402,192,76355,128,0,76572:0:0:0:0:
329,192,76355,1,0,0:0:0:0:
475,192,76464,1,0,0:0:0:0:
256,192,76572,128,0,77007:0:0:0:0:
109,192,76572,1,0,0:0:0:70:snare.wav
36,192,76681,1,0,0:0:0:0:
475,192,76790,1,0,0:0:0:0:
402,192,76899,1,0,0:0:0:0:
109,192,77007,128,0,78529:0:0:0:0:
475,192,77007,128,0,77442:0:0:0:0:
329,192,77007,1,0,0:0:0:70:bassdrum.wav
182,192,77007,1,0,0:0:0:0:
402,192,77116,1,0,0:0:0:0:
36,192,77225,1,0,0:0:0:0:
256,192,77333,1,0,0:0:0:0:
182,192,77442,128,0,77877:0:0:0:0:
329,192,77442,1,0,0:0:0:70:snare.wav
402,192,77551,1,0,0:0:0:0:
256,192,77659,1,0,0:0:0:0:
475,192,77768,1,0,0:0:0:0:
402,192,77877,128,0,78094:0:0:0:0:
36,192,77877,1,0,0:0:0:70:bassdrum.wav
329,192,77985,1,0,0:0:0:70:snare.wav
256,192,78094,128,0,78312:0:0:0:0:
182,192,78094,1,0,0:0:0:0:
475,192,78203,1,0,0:0:0:0:
329,192,78312,128,0,78746:0:0:0:0:
402,192,78312,1,0,0:0:0:70:snare.wav
36,192,78420,1,0,0:0:0:0:
182,192,78529,1,0,0:0:0:0:
256,192,78529,1,0,0:0:0:70:bassdrum.wav
475,192,78638,1,0,0:0:0:0:
36,192,78746,128,0,80268:0:0:0:0:
402,192,78746,128,0,79181:0:0:0:0:
256,192,78746,1,0,0:0:0:70:bassdrum.wav
109,192,78746,1,0,0:0:0:70:cymbol.wav
475,192,78855,1,0,0:0:0:0:
182,192,78964,1,0,0:0:0:0:
329,192,79072,1,0,0:0:0:0:
182,192,79181,128,0,79399:0:0:0:0:
109,192,79181,1,0,0:0:0:70:snare.wav
475,192,79290,1,0,0:0:0:0:
256,192,79399,128,0,79616:0:0:0:0:
402,192,79399,1,0,0:0:0:0:
182,192,79507,1,0,0:0:0:0:
329,192,79616,128,0,80051:0:0:0:0:
109,192,79616,1,0,0:0:0:70:bassdrum.wav
402,192,79725,1,0,0:0:0:70:snare.wav
182,192,79833,1,0,0:0:0:0:
475,192,79942,1,0,0:0:0:0:
109,192,80051,128,0,80485:0:0:0:0:
256,192,80051,1,0,0:0:0:70:snare.wav
402,192,80159,1,0,0:0:0:0:
182,192,80268,1,0,0:0:0:0:
256,192,80377,1,0,0:0:0:0:
475,192,80485,1,0,0:0:0:70:bassdrum.wav
402,192,80485,128,0,82007:0:0:0:0:
329,192,80594,1,0,0:0:0:0:
182,192,80703,1,0,0:0:0:0:
329,192,80920,128,0,82007:0:0:0:0:
36,192,80920,1,0,0:0:0:70:snare.wav
182,192,81029,1,0,0:0:0:0:
256,192,81138,1,0,0:0:0:0:
109,192,81138,128,0,82007:0:0:0:0:
36,192,81246,1,0,0:0:0:0:
475,192,81355,1,0,0:0:0:70:bassdrum.wav
182,192,81355,128,0,82007:0:0:0:0:
256,192,81464,1,0,0:0:0:70:snare.wav
36,192,81572,1,0,0:0:0:0:
475,192,81681,1,0,0:0:0:0:
256,192,81790,1,0,0:0:0:70:snare.wav
36,192,81899,1,0,0:0:0:0:
475,192,82007,1,0,0:0:0:70:bassdrum.wav
36,192,82225,1,0,0:0:0:0:
182,192,82225,1,0,0:0:0:0:
256,192,82225,1,0,0:0:0:70:cymbol.wav
402,192,82225,1,0,0:0:0:70:bassdrum.wav
329,192,82333,1,0,0:0:0:0:
402,192,82442,1,0,0:0:0:0:
109,192,82442,1,0,0:0:0:0:
475,192,82551,1,0,0:0:0:0:
182,192,82659,1,0,0:0:0:70:snare.wav
329,192,82659,1,0,0:0:0:70:bassdrum.wav
402,192,82768,1,0,0:0:0:0:
109,192,82877,1,0,0:0:0:0:
256,192,82877,1,0,0:0:0:0:
329,192,82985,1,0,0:0:0:0:
475,192,82985,1,0,0:0:0:0:
182,192,83094,1,0,0:0:0:70:bassdrum.wav
36,192,83094,128,0,83529:0:0:0:0:
256,192,83203,1,0,0:0:0:70:snare.wav
329,192,83312,1,0,0:0:0:0:
475,192,83312,1,0,0:0:0:0:
402,192,83420,1,0,0:0:0:0:
475,192,83529,1,0,0:0:0:70:bassdrum.wav
256,192,83529,1,0,0:0:0:70:snare.wav
109,192,83638,1,0,0:0:0:0:
329,192,83746,1,0,0:0:0:0:
182,192,83746,1,0,0:0:0:0:
109,192,83855,1,0,0:0:0:0:
36,192,83964,1,0,0:0:0:70:cymbol.wav
256,192,83964,1,0,0:0:0:70:bassdrum.wav
402,192,83964,1,0,0:0:0:0:
329,192,84072,1,0,0:0:0:0:
182,192,84181,1,0,0:0:0:0:
109,192,84181,1,0,0:0:0:0:
475,192,84290,1,0,0:0:0:0:
329,192,84399,1,0,0:0:0:70:snare.wav
36,192,84507,1,0,0:0:0:0:
256,192,84616,1,0,0:0:0:0:
475,192,84616,1,0,0:0:0:0:
109,192,84725,1,0,0:0:0:0:
402,192,84725,1,0,0:0:0:0:
36,192,84833,1,0,0:0:0:70:bassdrum.wav
182,192,84833,128,0,85268:0:0:0:0:
329,192,84942,1,0,0:0:0:70:snare.wav
402,192,85051,1,0,0:0:0:0:
109,192,85051,1,0,0:0:0:0:
329,192,85159,1,0,0:0:0:0:
36,192,85268,128,0,85485:0:0:0:0:
475,192,85268,128,0,85485:0:0:0:0:
256,192,85268,1,0,0:0:0:70:snare.wav
329,192,85485,128,0,85703:0:0:0:0:
402,192,85485,1,0,0:0:0:70:bassdrum.wav
182,192,85485,1,0,0:0:0:0:
256,192,85703,1,0,0:0:0:70:cymbol.wav
36,192,85703,128,0,87768:0:0:0:0:
109,192,85703,128,0,86899:0:0:0:0:
182,192,85703,128,0,86029:0:0:0:0:
402,192,85920,1,0,0:0:0:0:
475,192,85920,1,0,0:0:0:0:
329,192,86138,1,0,0:0:0:70:snare.wav
182,192,86138,128,0,88203:0:0:0:0:
475,192,86355,1,0,0:0:0:0:
402,192,86355,1,0,0:0:0:0:
256,192,86572,1,0,0:0:0:70:cymbol.wav
475,192,86790,1,0,0:0:0:0:
402,192,86790,1,0,0:0:0:0:
109,192,87007,128,0,88203:0:0:0:0:
329,192,87007,1,0,0:0:0:70:snare.wav
402,192,87225,1,0,0:0:0:0:
475,192,87225,1,0,0:0:0:0:
256,192,87442,1,0,0:0:0:70:cymbol.wav
402,192,87659,1,0,0:0:0:0:
475,192,87659,1,0,0:0:0:0:
36,192,87877,128,0,88203:0:0:0:0:
329,192,87877,1,0,0:0:0:70:snare.wav
402,192,88094,1,0,0:0:0:0:
475,192,88094,1,0,0:0:0:0:
329,192,88312,1,0,0:0:0:70:bassdrum.wav
109,192,88312,1,0,0:0:0:0:
182,192,88312,1,0,0:0:0:0:
36,192,88312,1,0,0:0:0:0:
475,192,88312,1,0,0:0:0:0:
256,192,88420,1,0,0:0:0:0:
36,192,88529,1,0,0:0:0:0:
182,192,88529,1,0,0:0:0:0:
329,192,88529,1,0,0:0:0:0:
475,192,88529,1,0,0:0:0:0:
402,192,88529,1,0,0:0:0:0:
256,192,88638,1,0,0:0:0:0:
109,192,88746,1,0,0:0:0:0:
182,192,88746,1,0,0:0:0:70:snare.wav
329,192,88746,1,0,0:0:0:70:bassdrum.wav
402,192,88746,1,0,0:0:0:0:
36,192,88855,1,0,0:0:0:0:
475,192,88855,1,0,0:0:0:0:
182,192,88964,1,0,0:0:0:0:
329,192,88964,1,0,0:0:0:0:
475,192,89072,1,0,0:0:0:0:
36,192,89072,1,0,0:0:0:0:
475,192,89181,128,0,89507:0:0:0:0:
402,192,89181,1,0,0:0:0:0:
402,192,89290,128,0,89616:0:0:0:0:
329,192,89290,1,0,0:0:0:0:
329,192,89399,128,0,89725:0:0:0:0:
256,192,89399,1,0,0:0:0:0:
256,192,89507,128,0,89833:0:0:0:0:
182,192,89507,1,0,0:0:0:0:
182,192,89616,128,0,89942:0:0:0:0:
109,192,89616,1,0,0:0:0:0:
109,192,89725,128,0,90051:0:0:0:0:
36,192,89725,1,0,0:0:0:0:
475,192,89833,128,0,89942:0:0:0:0:
36,192,89833,128,0,90159:0:0:0:0:
402,192,89942,128,0,90051:0:0:0:0:
329,192,90051,128,0,90159:0:0:0:0:
256,192,90159,128,0,90268:0:0:0:0:
182,192,90268,128,0,90377:0:0:0:0:
475,192,90268,128,0,90377:0:0:0:0:
109,192,90377,128,0,90485:0:0:0:0:
402,192,90377,128,0,90485:0:0:0:0:
329,192,90485,128,0,90594:0:0:0:0:
36,192,90485,128,0,90594:0:0:0:0:
256,192,90594,128,0,90703:0:0:0:0:
182,192,90703,128,0,90812:0:0:0:0:
109,192,90812,128,0,90920:0:0:0:0:
36,192,90920,128,0,94399:0:0:0:0:
